--> And Then There Were None S01 2015 1080p BluRay DTS x264-CMCT
NetHD.org

And Then There Were None S01 2015 1080p BluRay DTS x264-CMCT

Download And Then There Were None S01 2015 1080p BluRay DTS x264-CMCT 
Small DescriptionIt's 1939 and Europe teeters on the brink of war. Ten strangers are invited to Soldier Island an isolated rock near the Devon coast in southern England. Cut off from the mainland, with their generous hosts Mr and Mrs U.N. Owen mysteriously absent, they are each accused of a terrible crime. As each member of the party starts to die one by one, the survivors realize that one of them is a killer and start to turn on each other. Written by BBC
Basic Info
Uploaded bydpc (Uploader) at 2018-10-01 09:18:09
Action
Social
  • 0
Hot Meter
  • Views: 139
  • Hits: 6
  • Snatched: 1 x time(s)
  • Last Action: 2018-12-09 18:02:20
Peers0 Seeder | 0 Leecher


And Then There Were None S01 2015 1080p BluRay DTS x264-CMCT screenshots


Phim Và Rồi Chẳng Còn Ai - And Then There Were None 2015: Bộ phim lấy bối cảnh năm 1939, 8 vị khách thuộc mọi tầng lớp và lứa tuổi được một người tên U.N. Owen mời tới nghỉ tại đảo Chiến Binh, một hòn đảo trơ trọi gần Devon, miền Nam nước Anh. Khi tới nơi, họ nhận ra vị chủ nhân của ngôi biệt thự không có mặt, chỉ có cặp vợ chồng quản gia. Sau cái chết kì lạ của 2 nhân vật giống như mô tả trong bài vè bí ẩn, họ nhận ra mình đã rơi vào cái bẫy của một tên sát nhân.


And Then There Were None S01 2015 1080p BluRay DTS x264-CMCT screenshots


Quote
General
Unique ID                   : 216135063674452094948571501238810991024 (0xA29A195FAF04ECA494BFF99FB91659B0)
Complete name               : C:\Phim\无人生还.第一季.2015.1080p.中英字幕.£CMCT玩偶\[无人生还].And.Then.There.Were.None.S01E01.2015.BluRay.1080p.x264.DTS-CMCT.mkv
Format                      : Matroska
Format version              : Version 4
File size                   : 4.72 GiB
Duration                    : 58 min 30 s
Overall bit rate            : 11.5 Mb/s
Encoded date                : UTC 2018-09-03 14:52:52
Writing application         : mkvmerge v13.0.0 ('The Juggler') 64bit
Writing library             : libebml v1.3.4 + libmatroska v1.4.5
Attachments                 : Cronos Pro Subhead It.otf / STKAITI.TTF

Video
ID                          : 2
Format                      : AVC
Format/Info                 : Advanced Video Codec
Format profile              : High@L4.1
Format settings             : CABAC / 4 Ref Frames
Format settings, CABAC      : Yes
Format settings, ReFrames   : 4 frames
Codec ID                    : V_MPEG4/ISO/AVC
Duration                    : 58 min 30 s
Bit rate                    : 10 000 kb/s
Width                       : 1 920 pixels
Height                      : 1 080 pixels
Display aspect ratio        : 16:9
Frame rate mode             : Constant
Frame rate                  : 23.976 (24000/1001) FPS
Color space                 : YUV
Chroma subsampling          : 4:2:0
Bit depth                   : 8 bits
Scan type                   : Progressive
Bits/(Pixel*Frame)          : 0.201
Stream size                 : 4.09 GiB (87%)
Title                       : 1080P
Writing library             : x264 core 152 r2851+45 9658d1a 7mod [8-bit@all X86_64]
Encoding settings           : cabac=1 / ref=4 / deblock=1:-1:-1 / analyse=0x3:0x133 / me=umh / subme=11 / psy=1 / fade_compensate=0.00 / psy_rd=1.00:0.10 / mixed_ref=1 / me_range=32 / chroma_me=1 / trellis=2 / 8x8dct=1 / cqm=0 / deadzone=21,11 / fast_pskip=0 / chroma_qp_offset=-3 / threads=6 / lookahead_threads=1 / sliced_threads=0 / nr=0 / decimate=1 / interlaced=0 / bluray_compat=0 / constrained_intra=0 / fgo=0 / bframes=6 / b_pyramid=2 / b_adapt=2 / b_bias=0 / direct=3 / weightb=1 / open_gop=0 / weightp=2 / keyint=600 / keyint_min=1 / scenecut=40 / intra_refresh=0 / rc_lookahead=70 / rc=2pass / mbtree=1 / bitrate=10000 / ratetol=1.0 / qcomp=0.70 / qpmin=0:0:0 / qpmax=69:69:69 / qpstep=4 / cplxblur=20.0 / qblur=0.5 / ip_ratio=1.40 / aq=1:0.80 / aq-sensitivity=10.00 / aq-factor=1.00:1.00:1.00 / aq2=0 / aq3=0
Language                    : English
Default                     : Yes
Forced                      : No
Color range                 : Limited
Matrix coefficients         : BT.709

Audio
ID                          : 1
Format                      : DTS
Format/Info                 : Digital Theater Systems
Codec ID                    : A_DTS
Duration                    : 58 min 30 s
Bit rate mode               : Constant
Bit rate                    : 1 509 kb/s
Channel(s)                  : 6 channels
Channel layout              : C L R Ls Rs LFE
Sampling rate               : 48.0 kHz
Frame rate                  : 93.750 FPS (512 SPF)
Bit depth                   : 24 bits
Compression mode            : Lossy
Stream size                 : 632 MiB (13%)
Title                       : DTS 5.1 @ 1509 kbps
Language                    : English
Default                     : Yes
Forced                      : No

Text #1
ID                          : 3
Format                      : ASS
Codec ID                    : S_TEXT/ASS
Codec ID/Info               : Advanced Sub Station Alpha
Duration                    : 57 min 52 s
Bit rate                    : 95 b/s
Count of elements           : 693
Compression mode            : Lossless
Stream size                 : 40.3 KiB (0%)
Title                       : 繁体中文
Default                     : No
Forced                      : No

Text #2
ID                          : 4
Format                      : ASS
Codec ID                    : S_TEXT/ASS
Codec ID/Info               : Advanced Sub Station Alpha
Duration                    : 57 min 52 s
Bit rate                    : 95 b/s
Count of elements           : 693
Compression mode            : Lossless
Stream size                 : 40.3 KiB (0%)
Title                       : 简体中文
Default                     : No
Forced                      : No

Text #3
ID                          : 5
Format                      : ASS
Codec ID                    : S_TEXT/ASS
Codec ID/Info               : Advanced Sub Station Alpha
Duration                    : 57 min 52 s
Bit rate                    : 196 b/s
Count of elements           : 693
Compression mode            : Lossless
Stream size                 : 83.4 KiB (0%)
Title                       : 英上中下
Default                     : No
Forced                      : No

Text #4
ID                          : 6
Format                      : ASS
Codec ID                    : S_TEXT/ASS
Codec ID/Info               : Advanced Sub Station Alpha
Duration                    : 57 min 52 s
Bit rate                    : 84 b/s
Count of elements           : 659
Compression mode            : Lossless
Stream size                 : 35.7 KiB (0%)
Title                       : 英文
Default                     : No
Forced                      : No

Text #5
ID                          : 7
Format                      : ASS
Codec ID                    : S_TEXT/ASS
Codec ID/Info               : Advanced Sub Station Alpha
Duration                    : 57 min 52 s
Bit rate                    : 205 b/s
Count of elements           : 693
Compression mode            : Lossless
Stream size                 : 87.3 KiB (0%)
Title                       : 中上英下
Default                     : Yes
Forced                      : No




And Then There Were None S01 2015 1080p BluRay DTS x264-CMCT screenshots


And Then There Were None S01 2015 1080p BluRay DTS x264-CMCT screenshots And Then There Were None S01 2015 1080p BluRay DTS x264-CMCT screenshots And Then There Were None S01 2015 1080p BluRay DTS x264-CMCT screenshots And Then There Were None S01 2015 1080p BluRay DTS x264-CMCT screenshots



And Then There Were None S01 2015 1080p BluRay DTS x264-CMCT screenshots



TitleAnd Then There Were None
Year2015
Genre
Rating8 (24,237 votes)
PlotIt's 1939 and Europe teeters on the brink of war. Ten strangers are invited to Soldier Island an isolated rock near the Devon coast in southern England. Cut off from the mainland, with their generous hosts Mr and Mrs U.N. Owen mysteriously absent, they are each accused of a terrible crime. As members of the party start to die one by one, the survivors realize that one of them is a killer and start to turn on each other. Written by BBC
DirectorCraig Viveiros,Basi Akpabio,Rebecca Keane
CastsMaeve Dermody,Charles Dance,Toby Stephens,Burn Gorman,Aidan Turner…
Runtime58 min
Genres
And Then There Were None


Basic Instinct 2 2006 720p BluRay DD5.1 x264-CtrlHD The Heineken Kidnapping (2011) 1080p x264 DD5.1 EN  SubsMolly's Game 2017 720p BluRay DD5.1 x264-TayTOGone Baby Gone 2007 720p BluRay DD5.1 x264-RightSiZEOdd Man Out 1947 1080p BluRay FLAC1.0 x264-VietHDSwerve 2011 mHD BluRay DD5.1 x264-TRiM

Only members can create comment.