--> Free State of Jones 2016 mHD BluRay DD5.1 x264-TRiM
NetHD.org

Free State of Jones 2016 mHD BluRay DD5.1 x264-TRiM

Download Free State of Jones 2016 mHD BluRay DD5.1 x264-TRiM 
Small DescriptionA disillusioned Confederate army deserter returns to Mississippi and leads a militia of fellow deserters and women in an uprising against the corrupt local Confederate government.
Basic Info
Uploaded byAnonymous at 2017-09-26 13:14:36
Action
Social
  • 2
Hot Meter
  • Views: 337
  • Hits: 34
  • Snatched: 17 x time(s)
  • Last Action: 2019-02-17 10:29:47
Peers4 Seeder | 0 Leecher


General
Unique ID                   : 227082497756591869018933997325575184176 (0xAAD67F8BD78131EAB582D78B053ADF30)
Complete name               : D:\NETHD\Free.State.of.Jones.2016.mHD.BluRay.DD5.1.x264-TRiM\Free.State.of.Jones.2016.mHD.BluRay.DD5.1.x264-TRiM.mkv
Format                      : Matroska
Format version              : Version 2
File size                   : 3.65 GiB
Duration                    : 2 h 19 min
Overall bit rate            : 3 736 kb/s
Encoded date                : UTC 2016-09-21 13:18:41
Writing application         : mkvmerge v8.5.2 ('Crosses') 32bit
Writing library             : libebml v1.3.3 + libmatroska v1.4.4

Video
ID                          : 1
Format                      : AVC
Format/Info                 : Advanced Video Codec
Format profile              : High@L4.1
Format settings, CABAC      : Yes
Format settings, ReFrames   : 9 frames
Codec ID                    : V_MPEG4/ISO/AVC
Duration                    : 2 h 19 min
Bit rate                    : 3 094 kb/s
Width                       : 1 280 pixels
Height                      : 694 pixels
Display aspect ratio        : 1.85:1
Frame rate mode             : Constant
Frame rate                  : 23.976 (24000/1001) FPS
Color space                 : YUV
Chroma subsampling          : 4:2:0
Bit depth                   : 8 bits
Scan type                   : Progressive
Bits/(Pixel*Frame)          : 0.145
Stream size                 : 3.02 GiB (83%)
Writing library             : x264 core 148 r2705.16 d50a22e VietHD_Custom_64

Audio
ID                          : 2
Format                      : AC-3
Format/Info                 : Audio Coding 3
Format settings, Endianness : Big
Codec ID                    : A_AC3
Duration                    : 2 h 19 min
Bit rate mode               : Constant
Bit rate                    : 640 kb/s
Channel(s)                  : 6 channels
Channel positions           : Front: L C R, Side: L R, LFE
Sampling rate               : 48.0 kHz
Frame rate                  : 31.250 FPS (1536 spf)
Bit depth                   : 16 bits
Compression mode            : Lossy
Stream size                 : 641 MiB (17%)
Language                    : English
Service kind                : Complete Main
Default                     : Yes
Forced                      : No

Text
ID                          : 3
Format                      : UTF-8
Codec ID                    : S_TEXT/UTF8
Codec ID/Info               : UTF-8 Plain Text
Duration                    : 2 h 11 min
Bit rate                    : 45 b/s
Count of elements           : 1679
Stream size                 : 44.0 KiB (0%)
Language                    : English
Default                     : Yes
Forced                      : No

Free State of Jones 2016 mHD BluRay DD5.1 x264-TRiM screenshotsFree State of Jones 2016 mHD BluRay DD5.1 x264-TRiM screenshotsFree State of Jones 2016 mHD BluRay DD5.1 x264-TRiM screenshotsFree State of Jones 2016 mHD BluRay DD5.1 x264-TRiM screenshots

Free State of Jones 2016 mHD BluRay DD5.1 x264-TRiM screenshotsFree State of Jones 2016 mHD BluRay DD5.1 x264-TRiM screenshotsFree State of Jones 2016 mHD BluRay DD5.1 x264-TRiM screenshotsFree State of Jones 2016 mHD BluRay DD5.1 x264-TRiM screenshots

TitleFree State of Jones
Year2016
Genre
Rating6.9 (43,491 votes)
PlotSet during the Civil War, Free State of Jones tells the story of defiant Southern farmer, Newt Knight, and his extraordinary armed rebellion against the Confederacy. Banding together with other small farmers and local slaves, Knight launched an uprising that led Jones County, Mississippi to secede from the Confederacy, creating a Free State of Jones. Knight continued his struggle into Reconstruction, distinguishing him as a compelling, if controversial, figure of defiance long beyond the War.
DirectorGary Ross
CastsMatthew McConaughey,Gugu Mbatha-Raw,Mahershala Ali,Keri Russell,Christopher Berry…
Runtime139 min
Genres
Free State of Jones


Starship Troopers 1997 720p BluRay DD5 1 x264-CtrlHD The Interview 2014 1080p BluRay DTS x264-DONThe Delta Force 1986 Bluray mHD BluRay DD5.1 x264-TRiMDivergent 2014 mHD BluRay DD5.1 x264-TRiMKung Fu Master Named Drunk Cat 1978 1080p ESP Blu-ray AVC DD 2 0-ADCThe Battleship Island 2017 1080p BluRay DTS x264-iLoveHD

Only members can create comment.