--> The Beatles - 2018 - The Beatles (White Album) [Super Deluxe] [Hi-Res] [FLAC]
NetHD.org

The Beatles - 2018 - The Beatles (White Album) [Super Deluxe] [Hi-Res] [FLAC]

Download The Beatles - 2018 - The Beatles (White Album) [Super Deluxe] [Hi-Res] [FLAC] 
Small DescriptionThe Beatles - 2018 - The Beatles (White Album) 107 Song [FLAC]
Basic Info
Uploaded byxfree (Elite User) at 2019-02-12 14:43:32
Action
Social
  • 2
Hot Meter
  • Views: 55
  • Hits: 14
  • Snatched: 8 x time(s)
  • Last Action: 2019-02-17 05:50:45
Peers5 Seeder | 0 Leecher


The Beatles - 2018 - The Beatles (White Album) [Super Deluxe] [Hi-Res] [FLAC] screenshots
--------------------------------------------------------------------------------
Analyzed: The Beatles / The Beatles (White Album) [Super Deluxe]
--------------------------------------------------------------------------------

DR         Peak         RMS     Duration Track
--------------------------------------------------------------------------------
DR10      -0.31 dB   -11.81 dB      2:43 01-Back In The U.S.S.R. (2018 Mix)
DR11      -0.31 dB   -12.89 dB      3:55 02-Dear Prudence (2018 Mix)
DR9       -0.31 dB   -11.57 dB      2:18 03-Glass Onion (2018 Mix)
DR11      -0.31 dB   -11.63 dB      3:09 04-Ob-La-Di, Ob-La-Da (2018 Mix)
DR13      -0.31 dB   -15.33 dB      0:53 05-Wild Honey Pie (2018 Mix)
DR10      -0.31 dB   -11.97 dB      3:14 06-The Continuing Story Of Bungalow Bill (2018 Mix)
DR9       -0.31 dB   -10.87 dB      4:45 07-While My Guitar Gently Weeps (2018 Mix)
DR10      -0.31 dB   -11.70 dB      2:45 08-Happiness Is A Warm Gun (2018 Mix)
DR11      -0.31 dB   -13.83 dB      2:28 09-Martha My Dear (2018 Mix)
DR11      -0.31 dB   -13.60 dB      2:03 10-I'm So Tired (2018 Mix)
DR13      -1.95 dB   -17.00 dB      2:18 11-Blackbird (2018 Mix)
DR10      -0.31 dB   -12.40 dB      2:04 12-Piggies (2018 Mix)
DR11      -0.31 dB   -13.56 dB      3:33 13-Rocky Raccoon (2018 Mix)
DR10      -0.31 dB   -11.18 dB      3:50 14-Don't Pass Me By (2018 Mix)
DR9       -0.31 dB   -11.06 dB      1:42 15-Why Don't We Do It In The Road? (2018 Mix)
DR11      -0.31 dB   -13.54 dB      1:46 16-I Will (2018 Mix)
DR10      -1.36 dB   -13.79 dB      2:56 17-Julia (2018 Mix)
DR9       -0.31 dB   -10.27 dB      2:42 18-Birthday (2018 Mix)
DR10      -0.31 dB   -11.97 dB      4:01 19-Yer Blues (2018 Mix)
DR13      -0.31 dB   -16.52 dB      2:48 20-Mother Nature's Son (2018 Mix)
DR8       -0.31 dB   -10.05 dB      2:25 21-Everybody's Got Something To Hide Except Me And My Monkey (2018 Mix)
DR10      -0.31 dB   -11.45 dB      3:15 22-Sexy Sadie (2018 Mix)
DR8       -0.31 dB   -10.27 dB      4:30 23-Helter Skelter (2018 Mix)
DR8       -0.31 dB   -12.66 dB      3:06 24-Long, Long, Long (2018 Mix)
DR8       -0.31 dB   -10.18 dB      4:16 25-Revolution 1 (2018 Mix)
DR10      -0.31 dB   -12.88 dB      2:41 26-Honey Pie (2018 Mix)
DR10      -0.31 dB   -10.98 dB      2:54 27-Savoy Truffle (2018 Mix)
DR9       -0.31 dB   -12.21 dB      3:02 28-Cry Baby Cry (2018 Mix)
DR9       -0.31 dB   -14.17 dB      8:21 29-Revolution 9 (2018 Mix)
DR10      -0.65 dB   -13.52 dB      3:15 30-Good Night (2018 Mix)
DR9       -0.31 dB   -10.95 dB      3:00 31-Back In The U.S.S.R. (Esher Demo)
DR10      -0.31 dB   -13.02 dB      4:47 32-Dear Prudence (Esher Demo)
DR12      -0.31 dB   -13.84 dB      1:56 33-Glass Onion (Esher Demo)
DR9       -0.31 dB   -10.74 dB      3:11 34-Ob-La-Di, Ob-La-Da (Esher Demo)
DR11      -0.31 dB   -13.72 dB      2:41 35-The Continuing Story Of Bungalow Bill (Esher Demo)
DR11      -0.31 dB   -14.15 dB      2:41 36-While My Guitar Gently Weeps (Esher Demo)
DR13      -0.31 dB   -16.09 dB      1:55 37-Happiness Is A Warm Gun (Esher Demo)
DR12      -0.31 dB   -15.57 dB      3:11 38-I'm So Tired (Esher Demo)
DR11      -0.31 dB   -13.16 dB      2:35 39-Blackbird (Esher Demo)
DR11      -0.31 dB   -13.56 dB      2:06 40-Piggies (Esher Demo)
DR10      -0.31 dB   -12.63 dB      2:44 41-Rocky Raccoon (Esher Demo)
DR10      -0.31 dB   -12.02 dB      3:56 42-Julia (Esher Demo)
DR13      -0.31 dB   -15.35 dB      3:31 43-Yer Blues (Esher Demo)
DR10      -0.31 dB   -12.00 dB      2:24 44-Mother Nature's Son (Esher Demo)
DR10      -0.31 dB   -12.78 dB      3:04 45-Everybody's Got Something To Hide Except Me And My Monkey (Esher Demo)
DR10      -0.31 dB   -12.61 dB      2:27 46-Sexy Sadie (Esher Demo)
DR10      -0.31 dB   -12.86 dB      4:07 47-Revolution (Esher Demo)
DR10      -0.31 dB   -11.71 dB      2:00 48-Honey Pie (Esher Demo)
DR12      -0.31 dB   -13.43 dB      2:28 49-Cry Baby Cry (Esher Demo)
DR12      -0.31 dB   -13.39 dB      3:44 50-Sour Milk Sea (Esher Demo)
DR10      -0.31 dB   -12.75 dB      2:37 51-Junk (Esher Demo)
DR11      -0.31 dB   -12.94 dB      2:38 52-Child Of Nature (Esher Demo)
DR9       -0.34 dB   -12.31 dB      2:17 53-Circles (Esher Demo)
DR10      -0.31 dB   -11.68 dB      2:06 54-Mean Mr Mustard (Esher Demo)
DR11      -0.31 dB   -12.61 dB      1:26 55-Polythene Pam (Esher Demo)
DR10      -0.31 dB   -13.79 dB      3:05 56-Not Guilty (Esher Demo)
DR10      -0.31 dB   -13.45 dB      2:43 57-What’s The New Mary Jane (Esher Demo)
DR12      -0.40 dB   -15.01 dB     10:29 58-Revolution 1 (Take 18)
DR11      -0.40 dB   -13.11 dB      5:06 59-A Beginning (Take 4) / Don’t Pass Me By (Take 7)
DR13      -2.67 dB   -19.61 dB      2:16 60-Blackbird (Take 28)
DR12      -1.16 dB   -14.91 dB      2:43 61-Everybody's Got Something To Hide Except Me And My Monkey (Unumbered Rehearsal)
DR14      -1.79 dB   -17.94 dB      0:39 62-Good Night (Unumbered Rehearsal)
DR11      -1.65 dB   -15.38 dB      2:31 63-Good Night (Take 10 With A Guitar Part From Take 5)
DR12      -1.70 dB   -16.02 dB      3:46 64-Good Night (Take 22)
DR11      -0.40 dB   -12.99 dB      2:54 65-Ob-La-Di, Ob-La-Da (Take 3)
DR12      -1.41 dB   -15.91 dB      2:16 66-Revolution (Unumbered Rehearsal)
DR13      -1.40 dB   -15.42 dB      3:25 67-Revolution (Take 14 / Instrumental Backing Track)
DR12      -0.90 dB   -14.79 dB      3:03 68-Cry Baby Cry (Unumbered Rehearsal)
DR13      -0.40 dB   -16.55 dB     12:54 69-Helter Skelter (First Version / Take 2)
DR12      -0.79 dB   -15.31 dB      3:08 70-Sexy Sadie (Take 3)
DR9       -4.08 dB   -16.05 dB      3:03 71-While My Guitar Gently Weeps (Acoustic Version / Take 2)
DR11      -0.99 dB   -13.88 dB      6:44 72-Hey Jude (Take 1)
DR11      -5.15 dB   -18.61 dB      0:52 73-St Louis Blues (Studio Jam)
DR12      -0.40 dB   -14.07 dB      4:29 74-Not Guilty (Take 102)
DR10      -4.19 dB   -18.45 dB      3:11 75-Mother Nature's Son (Take 15)
DR10      -0.40 dB   -13.20 dB      3:58 76-Yer Blues (Take 5 With Guide Vocal)
DR13      -0.94 dB   -17.51 dB      2:07 77-What’s The New Mary Jane (Take 1)
DR12      -0.41 dB   -15.60 dB      4:57 78-Rocky Raccoon (Take 8)
DR12      -0.40 dB   -13.47 dB      3:10 79-Back In The U.S.S.R. (Take 5 / Instrumental Backing Track)
DR13      -0.91 dB   -16.36 dB      4:00 80-Dear Prudence (Vocal, Guitar & Drums)
DR12      -0.40 dB   -14.35 dB      1:18 81-Let It Be (Unumbered Rehearsal)
DR12      -0.40 dB   -14.34 dB      3:17 82-While My Guitar Gently Weeps (Third Version / Take 27)
DR11      -0.40 dB   -13.47 dB      0:43 83-(You're So Square) Baby I Don’t Care (Studio Jam)
DR10      -1.28 dB   -12.58 dB      3:39 84-Helter Skelter (Second Version / Take 17)
DR13      -0.40 dB   -14.94 dB      2:12 85-Glass Onion (Take 10)
DR12      -0.24 dB   -15.89 dB      2:21 86-I Will (Take 13)
DR12      -1.81 dB   -15.41 dB      1:11 87-Blue Moon (Studio Jam)
DR12      -3.01 dB   -16.63 dB      0:27 88-I Will (Take 29)
DR11      -0.91 dB   -15.71 dB      1:35 89-Step Inside Love (Studio Jam)
DR13      -0.50 dB   -15.33 dB      3:58 90-Los Paranoias (Studio Jam)
DR13      -0.40 dB   -14.31 dB      2:22 91-Can You Take Me Back? (Take 1)
DR12      -0.90 dB   -14.30 dB      2:40 92-Birthday (Take 2 / Instrumental Backing Track)
DR13      -1.62 dB   -17.63 dB      2:10 93-Piggies (Take 12 / Instrumental Backing Track)
DR13      -0.57 dB   -16.29 dB      3:09 94-Happiness Is A Warm Gun (Take 19)
DR13      -0.40 dB   -15.96 dB      2:43 95-Honey Pie (Instrumental Backing Track)
DR12      -0.90 dB   -14.48 dB      2:57 96-Savoy Truffle (Instrumental Backing Track)
DR12      -1.40 dB   -14.60 dB      2:29 97-Martha My Dear (Without Brass And Strings)
DR13      -0.73 dB   -18.12 dB      2:55 98-Long, Long, Long (Take 44)
DR12      -1.48 dB   -16.67 dB      2:30 99-I'm So Tired (Take 7)
DR13      -0.77 dB   -16.88 dB      2:17 100-I'm So Tired (Take 14)
DR13      -1.40 dB   -17.16 dB      3:13 101-The Continuing Story Of Bungalow Bill (Take 2)
DR13      -0.71 dB   -17.57 dB      2:03 102-Why Don’t We Do It In The Road? (Take 5)
DR11      -1.05 dB   -16.14 dB      4:31 103-Julia (Two Rehearsals)
DR12      -1.46 dB   -17.23 dB      2:48 104-The Inner Light (Take 6 / Instrumental Backing Track)
DR9       -2.39 dB   -13.06 dB      2:25 105-Lady Madonna (Take 2 / Piano & Drums)
DR12      -2.51 dB   -20.75 dB      0:54 106-Lady Madonna (Backing Vocals From Take 3)
DR10      -4.66 dB   -16.12 dB      3:53 107-Across The Universe (Take 6)
--------------------------------------------------------------------------------

Number of tracks:  107
Official DR value: DR11

Samplerate:        96000 Hz
Channels:          2
Bits per sample:   24
Bitrate:           2650 kbps
Codec:             FLAC
================================================================================


George Michael - Twenty Five (2006) [FLAC]Asia Karaoke 61: Tình khúc Trúc Phương [DVD5/ISO]London Philharmonic Orchestra-The 50 Greatest Pieces Of Classical Music (2009) [FLAC]VA - The Official UK Top 40 Singles Chart (7th July 2017) [MP3]Disco 80's and 90's - Collection [27CD] (2003-2011) FLACThe Beatles - Discography (1963 - 2010) [FLAC]

Only members can create comment.