--> The Dragon Dentist 2017 1080p BluRay DTS x264-CHD
NetHD.org

The Dragon Dentist 2017 1080p BluRay DTS x264-CHD

Download The Dragon Dentist 2017 1080p BluRay DTS x264-CHD 
Small DescriptionWelcome to Dragon Country. Nonoko is a newly appointed dentist and her mission is to protect the dragon, the guardian of the country, from tooth-cavity bacteria. One day, amid increasingly fierce battles with the neighboring country, Nonoko finds on the dragon's tooth an unconscious boy soldier from the enemy country. His name is Bell, and he has been resurrected from inside the tooth by the dragon--a supernatural phenomenon that legend says occurs before a major disaster. As Nonoko and Bell go…
Basic Info
Uploaded byAnonymous at 2019-02-11 15:32:15
Action
Social
  • 3
Hot Meter
  • Views: 115
  • Hits: 17
  • Snatched: 8 x time(s)
  • Last Action: 2019-02-19 17:32:36
Peers3 Seeder | 0 Leecher


The Dragon Dentist 2017 1080p BluRay DTS x264-CHD screenshots













The Dragon Dentist 2017 1080p BluRay DTS x264-CHD screenshots


General
Unique ID                                : 120606608516593072283603756313399525804 (0x5ABBFCE5EBAAA976C5AC1C2548A001AC)
Complete name                            : Z:\The.Dragon.Dentist.2017.BluRay.1080p.DTS.x264-CHD.mkv
Format                                   : Matroska
Format version                           : Version 4 / Version 2
File size                                : 9.63 GiB
Duration                                 : 1 h 37 min
Overall bit rate                         : 14.2 Mb/s
Encoded date                             : UTC 2019-01-25 06:46:30
Writing application                      : mkvmerge v30.1.0 ('Forever And More') 64-bit
Writing library                          : libebml v1.3.6 + libmatroska v1.4.9

Video
ID                                       : 1
Format                                   : AVC
Format/Info                              : Advanced Video Codec
Format profile                           : High@L4.1
Format settings                          : CABAC / 4 Ref Frames
Format settings, CABAC                   : Yes
Format settings, RefFrames               : 4 frames
Codec ID                                 : V_MPEG4/ISO/AVC
Duration                                 : 1 h 37 min
Bit rate                                 : 13.4 Mb/s
Width                                    : 1 920 pixels
Height                                   : 1 080 pixels
Display aspect ratio                     : 16:9
Frame rate mode                          : Constant
Frame rate                               : 23.976 (24000/1001) FPS
Color space                              : YUV
Chroma subsampling                       : 4:2:0
Bit depth                                : 8 bits
Scan type                                : Progressive
Bits/(Pixel*Frame)                       : 0.270
Stream size                              : 9.12 GiB (95%)
Writing library                          : x264 core 157 r2935 545de2f
Encoding settings                        : cabac=1 / ref=4 / deblock=1:-3:-3 / analyse=0x3:0x133 / me=umh / subme=11 / psy=1 / psy_rd=1.00:0.15 / mixed_ref=1 / me_range=32 / chroma_me=1 / trellis=2 / 8x8dct=1 / cqm=0 / deadzone=21,11 / fast_pskip=0 / chroma_qp_offset=-3 / threads=24 / lookahead_threads=6 / sliced_threads=0 / nr=0 / decimate=1 / interlaced=0 / bluray_compat=0 / constrained_intra=0 / bframes=12 / b_pyramid=2 / b_adapt=2 / b_bias=0 / direct=3 / weightb=1 / open_gop=0 / weightp=2 / keyint=300 / keyint_min=24 / scenecut=40 / intra_refresh=0 / rc_lookahead=60 / rc=crf / mbtree=1 / crf=18.0 / qcomp=0.60 / qpmin=0 / qpmax=69 / qpstep=4 / ip_ratio=1.40 / aq=3:1.00
Default                                  : Yes
Forced                                   : No

Audio
ID                                       : 2
Format                                   : DTS
Format/Info                              : Digital Theater Systems
Codec ID                                 : A_DTS
Duration                                 : 1 h 37 min
Bit rate mode                            : Constant
Bit rate                                 : 768 kb/s
Channel(s)                               : 2 channels
Channel positions                        : Front: L R
Sampling rate                            : 48.0 kHz
Frame rate                               : 93.750 FPS (512 SPF)
Bit depth                                : 24 bits
Compression mode                         : Lossy
Stream size                              : 519 MiB (5%)
Language                                 : Japanese
Default                                  : Yes
Forced                                   : No

Text
ID                                       : 3
Format                                   : PGS
Muxing mode                              : zlib
Codec ID                                 : S_HDMV/PGS
Codec ID/Info                            : Picture based subtitle format used on BDs/HD-DVDs
Duration                                 : 1 h 31 min
Bit rate                                 : 18.9 kb/s
Count of elements                        : 1854
Stream size                              : 12.4 MiB (0%)
Language                                 : Chinese
Default                                  : Yes
Forced                                   : No

Menu
00:00:00.000                             : :绗?01 绔?
00:04:33.732                             : :绗?02 绔?
00:14:08.347                             : :绗?03 绔?
00:24:18.207                             : :绗?04 绔?
00:33:17.871                             : :绗?05 绔?
00:40:42.857                             : :绗?06 绔?
00:46:00.007                             : :绗?07 绔?
00:54:45.908                             : :绗?08 绔?
01:01:41.197                             : :绗?09 绔?
01:08:26.728                             : :绗?10 绔?
01:15:19.640                             : :绗?11 绔?
01:20:31.493                             : :绗?12 绔?













The Dragon Dentist 2017 1080p BluRay DTS x264-CHD screenshots


The Dragon Dentist 2017 1080p BluRay DTS x264-CHD screenshotsThe Dragon Dentist 2017 1080p BluRay DTS x264-CHD screenshotsThe Dragon Dentist 2017 1080p BluRay DTS x264-CHD screenshots
The Dragon Dentist 2017 1080p BluRay DTS x264-CHD screenshotsThe Dragon Dentist 2017 1080p BluRay DTS x264-CHD screenshotsThe Dragon Dentist 2017 1080p BluRay DTS x264-CHD screenshots

TitleThe Dragon Dentist
Year2017
Genre
Rating7.1 (166 votes)
PlotWelcome to Dragon Country. Nonoko is a newly appointed dentist and her mission is to protect the dragon, the guardian of the country, from tooth-cavity bacteria. One day, amid increasingly fierce battles with the neighboring country, Nonoko finds on the dragon's tooth an unconscious boy soldier from the enemy country. His name is Bell, and he has been resurrected from inside the tooth by the dragon--a supernatural phenomenon that legend says occurs before a major disaster. As Nonoko and Bell go…
DirectorKazuya Tsurumaki
CastsTony Azzolino,Doug Erholtz,Barbara Goodson,Todd Haberkorn,Megumi Hayashibara…
Runtimen/A
Genres
The Dragon Dentist


The Incredibles 2 2018 720p BluRay DDP7.1 x264-TnP Folktales from Japan - 44 720p Bluray AAC x264 - HorribleSubsDragon Ball Z - Plan to Eradicate Super Saiyans [2010](HD-XBOX360 1280x720 H264 AAC)The Three Caballeros 1944 1080p WEBRip DD5.1 x264-TrollHD Aoki Hagane no Arpeggio - Ars Nova 2013 720p Bluray AAC x264 - [Clip-sub] Tinker Bell and the Legend of the NeverBeast 2014 ViE 720p BluRay DTS x264-CtrlHD

Only members can create comment.