--> The Dragon Dentist 2017 720p BluRay DTS x264-CHD
NetHD.org

The Dragon Dentist 2017 720p BluRay DTS x264-CHD

Download The Dragon Dentist 2017 720p BluRay DTS x264-CHD 
Small DescriptionWelcome to Dragon Country. Nonoko is a newly appointed dentist and her mission is to protect the dragon, the guardian of the country, from tooth-cavity bacteria. One day, amid increasingly fierce battles with the neighboring country, Nonoko finds on the dragon's tooth an unconscious boy soldier from the enemy country. His name is Bell, and he has been resurrected from inside the tooth by the dragon--a supernatural phenomenon that legend says occurs before a major disaster. As Nonoko and Bell go…
Basic Info
Uploaded byAnonymous at 2019-02-11 15:32:02
Action
Social
  • 2
Hot Meter
  • Views: 74
  • Hits: 6
  • Snatched: 1 x time(s)
  • Last Action: 2019-02-19 21:31:06
Peers2 Seeder | 0 Leecher


The Dragon Dentist 2017 720p BluRay DTS x264-CHD screenshots













The Dragon Dentist 2017 720p BluRay DTS x264-CHD screenshots


General
Unique ID                                : 231078073382895188462419093293370281495 (0xADD804A25434B8D26E122A99220D8E17)
Complete name                            : Z:\The.Dragon.Dentist.2017.BluRay.720p.DTS.x264-CHD.mkv
Format                                   : Matroska
Format version                           : Version 4 / Version 2
File size                                : 4.49 GiB
Duration                                 : 1 h 37 min
Overall bit rate                         : 6 612 kb/s
Encoded date                             : UTC 2019-01-25 06:46:04
Writing application                      : mkvmerge v30.1.0 ('Forever And More') 64-bit
Writing library                          : libebml v1.3.6 + libmatroska v1.4.9

Video
ID                                       : 1
Format                                   : AVC
Format/Info                              : Advanced Video Codec
Format profile                           : High@L4.1
Format settings                          : CABAC / 9 Ref Frames
Format settings, CABAC                   : Yes
Format settings, RefFrames               : 9 frames
Codec ID                                 : V_MPEG4/ISO/AVC
Duration                                 : 1 h 37 min
Bit rate                                 : 5 853 kb/s
Width                                    : 1 280 pixels
Height                                   : 720 pixels
Display aspect ratio                     : 16:9
Frame rate mode                          : Constant
Frame rate                               : 23.976 (24000/1001) FPS
Color space                              : YUV
Chroma subsampling                       : 4:2:0
Bit depth                                : 8 bits
Scan type                                : Progressive
Bits/(Pixel*Frame)                       : 0.265
Stream size                              : 3.97 GiB (89%)
Writing library                          : x264 core 157 r2935 545de2f
Encoding settings                        : cabac=1 / ref=9 / deblock=1:-3:-3 / analyse=0x3:0x133 / me=umh / subme=11 / psy=1 / psy_rd=1.00:0.15 / mixed_ref=1 / me_range=32 / chroma_me=1 / trellis=2 / 8x8dct=1 / cqm=0 / deadzone=21,11 / fast_pskip=0 / chroma_qp_offset=-3 / threads=22 / lookahead_threads=5 / sliced_threads=0 / nr=0 / decimate=1 / interlaced=0 / bluray_compat=0 / constrained_intra=0 / bframes=14 / b_pyramid=2 / b_adapt=2 / b_bias=0 / direct=3 / weightb=1 / open_gop=0 / weightp=2 / keyint=300 / keyint_min=24 / scenecut=40 / intra_refresh=0 / rc_lookahead=60 / rc=crf / mbtree=1 / crf=17.0 / qcomp=0.60 / qpmin=0 / qpmax=69 / qpstep=4 / ip_ratio=1.40 / aq=3:1.00
Default                                  : Yes
Forced                                   : No

Audio
ID                                       : 2
Format                                   : DTS
Format/Info                              : Digital Theater Systems
Codec ID                                 : A_DTS
Duration                                 : 1 h 37 min
Bit rate mode                            : Constant
Bit rate                                 : 768 kb/s
Channel(s)                               : 2 channels
Channel positions                        : Front: L R
Sampling rate                            : 48.0 kHz
Frame rate                               : 93.750 FPS (512 SPF)
Bit depth                                : 24 bits
Compression mode                         : Lossy
Stream size                              : 519 MiB (11%)
Language                                 : Japanese
Default                                  : Yes
Forced                                   : No

Text
ID                                       : 3
Format                                   : PGS
Muxing mode                              : zlib
Codec ID                                 : S_HDMV/PGS
Codec ID/Info                            : Picture based subtitle format used on BDs/HD-DVDs
Duration                                 : 1 h 31 min
Bit rate                                 : 18.9 kb/s
Count of elements                        : 1854
Stream size                              : 12.4 MiB (0%)
Language                                 : Chinese
Default                                  : Yes
Forced                                   : No

Menu
00:00:00.000                             : :绗?01 绔?
00:04:33.732                             : :绗?02 绔?
00:14:08.347                             : :绗?03 绔?
00:24:18.207                             : :绗?04 绔?
00:33:17.871                             : :绗?05 绔?
00:40:42.857                             : :绗?06 绔?
00:46:00.007                             : :绗?07 绔?
00:54:45.908                             : :绗?08 绔?
01:01:41.197                             : :绗?09 绔?
01:08:26.728                             : :绗?10 绔?
01:15:19.640                             : :绗?11 绔?
01:20:31.493                             : :绗?12 绔?













The Dragon Dentist 2017 720p BluRay DTS x264-CHD screenshots


The Dragon Dentist 2017 720p BluRay DTS x264-CHD screenshotsThe Dragon Dentist 2017 720p BluRay DTS x264-CHD screenshotsThe Dragon Dentist 2017 720p BluRay DTS x264-CHD screenshots
The Dragon Dentist 2017 720p BluRay DTS x264-CHD screenshotsThe Dragon Dentist 2017 720p BluRay DTS x264-CHD screenshotsThe Dragon Dentist 2017 720p BluRay DTS x264-CHD screenshots

TitleThe Dragon Dentist
Year2017
Genre
Rating7.1 (166 votes)
PlotWelcome to Dragon Country. Nonoko is a newly appointed dentist and her mission is to protect the dragon, the guardian of the country, from tooth-cavity bacteria. One day, amid increasingly fierce battles with the neighboring country, Nonoko finds on the dragon's tooth an unconscious boy soldier from the enemy country. His name is Bell, and he has been resurrected from inside the tooth by the dragon--a supernatural phenomenon that legend says occurs before a major disaster. As Nonoko and Bell go…
DirectorKazuya Tsurumaki
CastsTony Azzolino,Doug Erholtz,Barbara Goodson,Todd Haberkorn,Megumi Hayashibara…
Runtimen/A
Genres
The Dragon Dentist


Psycho-Pass: The Movie 2015 1080p BluRay DD5.1 x264-AyakuYour Name  2016 1080p BluRay DD5.1 x264-TAiCHiPeter & the Wolf 2006 1080p BluRay DTS x264-CtrlHDJames and the Giant Peach 1996 720p BluRay DTS x264-CtrlHDRurouni Kenshin Seisou-Hen 2001 mHD 720p x264 AC3-TRiM-V2TNaruto Shippuuden(Ep 421 - 430)

Only members can create comment.