--> Top 10 Banned Films Blu-ray 1080p AVC
NetHD.org

Top 10 Banned Films Blu-ray 1080p AVC

Download Top 10 Banned Films Blu-ray 1080p AVC Free
Small Description18+++||Nazi-Fascist Northern Italy, 1943-44. Four senior members of government, aided by henchmen and Nazi soldiers, kidnap a group of young men and women. They hold them for 120 days, subjecting them to all manner of torture, perversion and degradation. Written by grantss
Basic Info
Uploaded byAnonymous at 2019-02-07 22:56:38
Action
Social
  • 14
Hot Meter
  • Views: 2358
  • Hits: 222
  • Snatched: 40 x time(s)
  • Last Action: 2019-02-19 23:45:31
Peers18 Seeder | 5 Leecher


01 Salo Or the 120 Days of Sodom 1975
02 Baise Moi 2000 
03 Irreversible 2002 
04 Roma 1979 (Caligula) 
05 Ai No Corrida 1976 (In the Realm of the Senses) 
06 The Baby of Macon 1993 
07 Last House on the Left 2009 
08 Requiem for A Dream 2000 
09 Oodishon 2000 (Audition) 
10 I Spit on Your Grave 1978 

Top 10 Banned Films Blu-ray 1080p AVC screenshots
Quote
DISC INFO:

Disc Title:     Salo,or.The.120.Days.of.Sodom.1975.BluRay.Criterion.Collection.1080p.AVC.LPCM1.0@NEVER
Disc Size:      45,995,879,375 bytes
Protection:     AACS
BD-Java:        Yes
BDInfo:         0.5.8

PLAYLIST REPORT:

Name:                   00001.MPLS
Length:                 1:56:43.413 (h:m:s.ms)
Size:                   26,393,702,400 bytes
Total Bitrate:          30.15 Mbps

VIDEO:

Codec                   Bitrate             Description    
-----                   -------             -----------    
MPEG-4 AVC Video        25996 kbps          1080p / 23.976 fps / 16:9 / High Profile 4.1

AUDIO:

Codec                           Language        Bitrate         Description    
-----                           --------        -------         -----------    
LPCM Audio                      Italian         1152 kbps       1.0 / 48 kHz / 1152 kbps / 24-bit
Dolby Digital Audio             English         192 kbps        1.0 / 48 kHz / 192 kbps

SUBTITLES:

Codec                           Language        Bitrate         Description    
-----                           --------        -------         -----------    
Presentation Graphics           English         27.365 kbps                    
Presentation Graphics           English         0.236 kbps                      
Presentation Graphics           Chinese         16.553 kbps                    
Presentation Graphics           Chinese         17.005 kbps                    
Presentation Graphics           Chinese         85.929 kbps                    
Presentation Graphics           Chinese         87.416 kbps                    

FILES:

Name            Time In         Length          Size            Total Bitrate  
----            -------         ------          ----            -------------  
00274.M2TS      0:00:00.000     1:56:43.413     26,393,702,400  30,150    

Quote
DISC INFO:

Disc Title:     Baise_Moi
Disc Size:      18,610,118,655 bytes
Protection:     AACS
BD-Java:        Yes
Extras:         50Hz Content
BDInfo:         0.5.8

PLAYLIST REPORT:

Name:                   00000.MPLS
Length:                 1:16:54.249 (h:m:s.ms)
Size:                   240,178,944 bytes
Total Bitrate:          0.42 Mbps

VIDEO:

Codec                   Bitrate             Description    
-----                   -------             -----------    
MPEG-4 AVC Video        14795 kbps          1080p / 24 fps / 16:9 / High Profile 4.1

AUDIO:

Codec                           Language        Bitrate         Description    
-----                           --------        -------         -----------    
DTS-HD Master Audio             German          3616 kbps       5.1 / 48 kHz / 3616 kbps / 24-bit (DTS Core: 5.1 / 48 kHz / 1509 kbps / 24-bit)
DTS-HD Master Audio             French          1820 kbps       2.0 / 48 kHz / 1820 kbps / 24-bit (DTS Core: 2.0 / 48 kHz / 1509 kbps / 24-bit)
Dolby Digital Audio             French          448 kbps        5.1 / 48 kHz / 448 kbps
Dolby Digital Audio             Japanese        384 kbps        5.1 / 48 kHz / 384 kbps

SUBTITLES:

Codec                           Language        Bitrate         Description    
-----                           --------        -------         -----------    
Presentation Graphics           German          5.817 kbps                      
Presentation Graphics           English         2.075 kbps                      
Presentation Graphics           Chinese         3.738 kbps                      
Presentation Graphics           Chinese         2.979 kbps                      
Presentation Graphics           Japanese        2.009 kbps  

FILES:

Name            Time In         Length          Size            Total Bitrate  
----            -------         ------          ----            -------------  
00000.M2TS      0:00:00.000     1:16:54.249     240,178,944     22,829                        

Quote
DISC INFO:

Disc Title:     Irreversible 2002 1080p ITA Blu-ray AVC DTS-HD MA 5.1-DIY-HDU
Disc Size:      22,901,876,569 bytes
Protection:     AACS
BD-Java:        Yes
Extras:         50Hz Content
BDInfo:         0.5.8

PLAYLIST REPORT:

Name:                   01002.MPLS
Length:                 1:37:19.500 (h:m:s.ms)
Size:                   0 bytes
Total Bitrate:          0.00 Mbps

VIDEO:

Codec                   Bitrate             Description    
-----                   -------             -----------    
MPEG-4 AVC Video        0 kbps              1080p / 24 fps / 16:9 / High Profile 4.1

AUDIO:

Codec                           Language        Bitrate         Description    
-----                           --------        -------         -----------    
DTS-HD Master Audio             Italian         0 kbps          5.1 / 48 kHz / 16-bit (DTS Core: 5.1 / 48 kHz / 1509 kbps / 16-bit)
DTS-HD Master Audio             French          0 kbps          5.1 / 48 kHz / 16-bit (DTS Core: 5.1 / 48 kHz / 1509 kbps / 16-bit)

SUBTITLES:

Codec                           Language        Bitrate         Description    
-----                           --------        -------         -----------    
Presentation Graphics           Chinese         0.000 kbps                      
Presentation Graphics           Chinese         0.000 kbps    

Top 10 Banned Films Blu-ray 1080p AVC screenshots
Quote
DISC INFO:

Disc Title:     Caligula.1979.Uncensored.FRE.Blu-ray.1080p.AVC.DTS-HD.MA.5.1-DiY@KBu
Disc Size:      48,123,221,873 bytes
Protection:     AACS
BD-Java:        No
Extras:         50Hz Content
BDInfo:         0.5.8

PLAYLIST REPORT:

Name:                   00002.MPLS
Length:                 2:35:29.458 (h:m:s.ms)
Size:                   38,708,367,360 bytes
Total Bitrate:          33.19 Mbps

VIDEO:

Codec                   Bitrate             Description    
-----                   -------             -----------    
MPEG-4 AVC Video        26498 kbps          1080p / 24 fps / 16:9 / High Profile 4.1

AUDIO:

Codec                           Language        Bitrate         Description    
-----                           --------        -------         -----------    
DTS-HD Master Audio             French          2331 kbps       5.1 / 48 kHz / 2331 kbps / 16-bit (DTS Core: 5.1 / 48 kHz / 1509 kbps / 16-bit)
DTS-HD Master Audio             English         2357 kbps       5.1 / 48 kHz / 2357 kbps / 16-bit (DTS Core: 5.1 / 48 kHz / 1509 kbps / 16-bit)

SUBTITLES:

Codec                           Language        Bitrate         Description    
-----                           --------        -------         -----------    
Presentation Graphics           French          0.060 kbps                      
Presentation Graphics           French          16.476 kbps                    
Presentation Graphics           Chinese         9.741 kbps     简体字幕
Presentation Graphics           Chinese         9.937 kbps     繁体字幕
Presentation Graphics           English         14.998 kbps                    
Presentation Graphics           Chinese         18.870 kbps     简英字幕
Presentation Graphics           Chinese         19.066 kbps     繁英字幕

Top 10 Banned Films Blu-ray 1080p AVC screenshots
Quote
DISC INFO:

Disc Title:     In The Realm of the Senses
Disc Size:      48,426,687,175 bytes
Protection:     AACS
BD-Java:        Yes
BDInfo:         0.5.6

PLAYLIST REPORT:

Name:                   00001.MPLS
Length:                 1:42:25 (h:m:s)
Size:                   29,545,771,008 bytes
Total Bitrate:          38.46 Mbps

VIDEO:

Codec                   Bitrate             Description    
-----                   -------             -----------    
MPEG-4 AVC Video        34698 kbps          1080p / 23.976 fps / 16:9 / High Profile 4.1

AUDIO:

Codec                           Language        Bitrate         Description    
-----                           --------        -------         -----------    
LPCM Audio                      Japanese        768 kbps        1.0 / 48 kHz / 768 kbps / 16-bit
Dolby Digital Audio             English         192 kbps        1.0 / 48 kHz / 192 kbps

SUBTITLES:

Codec                           Language        Bitrate         Description    
-----                           --------        -------         -----------    
Presentation Graphics           English         23.399 kbps                    
Presentation Graphics           Chinese         19.645 kbps                    
Presentation Graphics           Chinese         20.218 kbps                    
Presentation Graphics           Chinese         28.751 kbps

Top 10 Banned Films Blu-ray 1080p AVC screenshots
Quote

DISC INFO:

Disc Title:     The Baby Of Macon 1992 Blu-ray 1080p AVC DTS-HD MA2.0-蓝阿狸@TTG
Disc Size:      20,670,965,356 bytes
Protection:     AACS
BD-Java:        No
BDInfo:         0.5.8

PLAYLIST REPORT:

Name:                   00003.MPLS
Length:                 2:01:57.250 (h:m:s.ms)
Size:                   20,367,931,392 bytes
Total Bitrate:          22.27 Mbps

VIDEO:

Codec                   Bitrate             Description    
-----                   -------             -----------    
MPEG-4 AVC Video        20018 kbps          1080p / 24 fps / 16:9 / High Profile 4.1

AUDIO:

Codec                           Language        Bitrate         Description    
-----                           --------        -------         -----------    
DTS-HD Master Audio             English         913 kbps        2.0 / 48 kHz / 913 kbps / 16-bit (DTS Core: 2.0 / 48 kHz / 768 kbps / 16-bit)

SUBTITLES:

Codec                           Language        Bitrate         Description    
-----                           --------        -------         -----------    
Presentation Graphics           Swedish         19.112 kbps                    
Presentation Graphics           Norwegian       17.005 kbps                    
Presentation Graphics           Danish          18.893 kbps                    
Presentation Graphics           Finnish         15.781 kbps                    
Presentation Graphics           English         33.609 kbps  简英双语                  
Presentation Graphics           English         34.399 kbps  繁英双语                  
Presentation Graphics           Chinese         19.292 kbps  简体中字                  
Presentation Graphics           Chinese         19.951 kbps  繁体中字  


Top 10 Banned Films Blu-ray 1080p AVC screenshots
Quote
DISC INFO:

Disc Title:     LAST_HOUSE_G51
Disc Size:      46,242,108,647 bytes
Protection:     AACS
BD-Java:        Yes
BDInfo:         0.5.8

PLAYLIST REPORT:

Name:                   00000.MPLS
Length:                 1:53:37.811 (h:m:s.ms)
Size:                   0 bytes
Total Bitrate:          0.00 Mbps

VIDEO:

Codec                   Bitrate             Description    
-----                   -------             -----------    
VC-1 Video              0 kbps              1080p / 23.976 fps / 16:9 / Advanced Profile 3

AUDIO:

Codec                           Language        Bitrate         Description    
-----                           --------        -------         -----------    
DTS Audio                       Japanese        768 kbps        5.1 / 48 kHz / 768 kbps / 24-bit
DTS-HD Master Audio             English         0 kbps          5.1 / 48 kHz / 24-bit (DTS Core: 5.1 / 48 kHz / 1509 kbps / 24-bit)
DTS Audio                       French          768 kbps        5.1 / 48 kHz / 768 kbps / 24-bit
DTS Audio                       Italian         768 kbps        5.1 / 48 kHz / 768 kbps / 24-bit
DTS Audio                       German          768 kbps        5.1 / 48 kHz / 768 kbps / 24-bit
DTS Audio                       Spanish         768 kbps        5.1 / 48 kHz / 768 kbps / 24-bit

SUBTITLES:

Codec                           Language        Bitrate         Description    
-----                           --------        -------         -----------    
Presentation Graphics           Japanese        0.000 kbps                      
Presentation Graphics           English         0.000 kbps                      
Presentation Graphics           French          0.000 kbps                      
Presentation Graphics           Italian         0.000 kbps                      
Presentation Graphics           German          0.000 kbps                      
Presentation Graphics           Spanish         0.000 kbps                      
Presentation Graphics           Dutch           0.000 kbps                      
Presentation Graphics           Danish          0.000 kbps                      
Presentation Graphics           Finnish         0.000 kbps                      
Presentation Graphics           Korean          0.000 kbps                      
Presentation Graphics           Norwegian       0.000 kbps                      
Presentation Graphics           Portuguese      0.000 kbps                      
Presentation Graphics           Swedish         0.000 kbps                      
Presentation Graphics           Chinese         0.000 kbps                      
Presentation Graphics           Japanese        0.000 kbps                      
Presentation Graphics           French          0.000 kbps                      
Presentation Graphics           Italian         0.000 kbps                      
Presentation Graphics           German          0.000 kbps                      
Presentation Graphics           Spanish         0.000 kbps                      

FILES:

Name            Time In         Length          Size            Total Bitrate  
----            -------         ------          ----            -------------  
00009.M2TS      0:00:00.000     1:53:37.811     0               0        

Top 10 Banned Films Blu-ray 1080p AVC screenshots
Quote
DISC INFO:

Disc Title:     Requiem.for.a.Dream.2000.DC.1080p.BluRay.AVC.DTS-HD.MA.5.1-DIY
Disc Size:      46,695,805,046 bytes
Protection:     AACS
BD-Java:        No
Extras:         50Hz Content
BDInfo:         0.5.8

PLAYLIST REPORT:

Name:                   00004.MPLS
Length:                 1:41:27.247 (h:m:s.ms)
Size:                   0 bytes
Total Bitrate:          0.00 Mbps

VIDEO:

Codec                   Bitrate             Description    
-----                   -------             -----------    
MPEG-4 AVC Video        0 kbps              1080p / 23.976 fps / 16:9 / High Profile 4.1

AUDIO:

Codec                           Language        Bitrate         Description    
-----                           --------        -------         -----------    
Dolby Digital Audio             Russian         384 kbps        5.1 / 48 kHz / 384 kbps / DN -4dB
DTS-HD Master Audio             English         0 kbps          7.1 / 48 kHz / 24-bit (DTS Core: 5.1 / 48 kHz / 1509 kbps / 24-bit)
Dolby Digital Audio             Russian         384 kbps        5.1 / 48 kHz / 384 kbps / DN -1dB
DTS Audio                       Russian         1509 kbps       5.1 / 48 kHz / 1509 kbps / 24-bit

SUBTITLES:

Codec                           Language        Bitrate         Description    
-----                           --------        -------         -----------    
Presentation Graphics           Russian         0.000 kbps                      
Presentation Graphics           Russian         0.000 kbps                      
Presentation Graphics           English         0.000 kbps                      
Presentation Graphics           Chinese         0.000 kbps                      

FILES:

Name            Time In         Length          Size            Total Bitrate  
----            -------         ------          ----            -------------  
00024.M2TS      0:00:00.000     1:41:27.247     0               0              

Top 10 Banned Films Blu-ray 1080p AVC screenshots
Quote
DISC INFO:

Disc title:     Audition 1999 DiY Blu-ray AVC 1080p DTS-HD MA 5.1-KBu
Disc Size:      47901017054 bytes
Protection:     AACS
BD-Java:        No
BDInfo:         0.5.8

PLAYLIST REPORT:

Name:                   00001.MPLS
Length:                 1:55:27.541 (h:m:s.ms)
Size:                   31300258752 bytes
Total Bitrate:          36.15 Mbps

VIDEO:

Codec                   Bitrate             Description    
-----                   -------             -----------    
MPEG-4 AVC Video        29966 kbps          1080p / 24 fps / 16:9 / High Profile 4.1

AUDIO:

Codec                           Language        Bitrate         Description    
-----                           --------        -------         -----------    
DTS-HD Master Audio             Japanese        3544 kbps       5.1 / 48 kHz / 3544 kbps / 24-bit (DTS Core: 5.1 / 48 kHz / 1509 kbps / 24-bit)
Dolby Digital Audio             Japanese        320 kbps        2.0 / 48 kHz / 320 kbps
Dolby Digital Audio             English         320 kbps        2.0 / 48 kHz / 320 kbps

SUBtitleS:

Codec                           Language        Bitrate         Description    
-----                           --------        -------         -----------    
Presentation Graphics           English         17.162 kbps                    
Presentation Graphics           English         39.255 kbps                    
Presentation Graphics           Chinese         15.828 kbps                    
Presentation Graphics           Chinese         15.204 kbps                    

FILES:

Name            Time In         Length          Size            Total Bitrate  
----            -------         ------          ----            -------------  
00003.M2TS      0:00:00.000     1:55:27.541     31300258752  36146  

Quote
DISC INFO:

Disc Title:     I_SPIT_ON_YOUR_GRAVE
Disc Size:      23,813,436,946 bytes
Protection:     AACS
BD-Java:        Yes
BDInfo:         0.5.8

PLAYLIST REPORT:

Name:                   00001.MPLS
Length:                 1:41:18.113 (h:m:s.ms)
Size:                   0 bytes
Total Bitrate:          0.00 Mbps

VIDEO:

Codec                   Bitrate             Description    
-----                   -------             -----------    
MPEG-4 AVC Video        0 kbps              1080p / 23.976 fps / 16:9 / High Profile 4.1

AUDIO:

Codec                           Language        Bitrate         Description    
-----                           --------        -------         -----------    
Dolby TrueHD Audio              English         0 kbps          5.1 / 48 kHz / 16-bit (AC3 Embedded: 5.1 / 48 kHz / 640 kbps)
Dolby Digital Audio             English         192 kbps        2.0 / 48 kHz / 192 kbps
Dolby Digital Audio             English         192 kbps        2.0 / 48 kHz / 192 kbps

SUBTITLES:

Codec                           Language        Bitrate         Description    
-----                           --------        -------         -----------    
Presentation Graphics           English         0.000 kbps                      
Presentation Graphics           Chinese         0.000 kbps                      
Presentation Graphics           Chinese         0.000 kbps        

Top 10 Banned Films Blu-ray 1080p AVC screenshots Top 10 Banned Films Blu-ray 1080p AVC screenshots Top 10 Banned Films Blu-ray 1080p AVC screenshots Top 10 Banned Films Blu-ray 1080p AVC screenshots Top 10 Banned Films Blu-ray 1080p AVC screenshots Top 10 Banned Films Blu-ray 1080p AVC screenshots
Top 10 Banned Films Blu-ray 1080p AVC screenshots Top 10 Banned Films Blu-ray 1080p AVC screenshots Top 10 Banned Films Blu-ray 1080p AVC screenshots Top 10 Banned Films Blu-ray 1080p AVC screenshots Top 10 Banned Films Blu-ray 1080p AVC screenshots Top 10 Banned Films Blu-ray 1080p AVC screenshots
Top 10 Banned Films Blu-ray 1080p AVC screenshots Top 10 Banned Films Blu-ray 1080p AVC screenshots Top 10 Banned Films Blu-ray 1080p AVC screenshots Top 10 Banned Films Blu-ray 1080p AVC screenshots Top 10 Banned Films Blu-ray 1080p AVC screenshots Top 10 Banned Films Blu-ray 1080p AVC screenshots
Top 10 Banned Films Blu-ray 1080p AVC screenshots Top 10 Banned Films Blu-ray 1080p AVC screenshots Top 10 Banned Films Blu-ray 1080p AVC screenshots Top 10 Banned Films Blu-ray 1080p AVC screenshots Top 10 Banned Films Blu-ray 1080p AVC screenshots Top 10 Banned Films Blu-ray 1080p AVC screenshots Top 10 Banned Films Blu-ray 1080p AVC screenshots Top 10 Banned Films Blu-ray 1080p AVC screenshots Top 10 Banned Films Blu-ray 1080p AVC screenshots
TitleSalò o le 120 giornate di Sodoma
Year1975
Genre
Rating6 (47,171 votes)
PlotNazi-Fascist Northern Italy, 1943-44. Four senior members of government, aided by henchmen and Nazi soldiers, kidnap a group of young men and women. They hold them for 120 days, subjecting them to all manner of torture, perversion and degradation. Written by grantss
DirectorPier Paolo Pasolini
CastsPaolo Bonacelli,Giorgio Cataldi,Umberto Paolo Quintavalle,Aldo Valletti,Caterina Boratto…
Runtime117 min
Genres
Salò o le 120 giornate di Sodoma


Forklift Driver Klaus: The First Day on the Job 2000 720p BluRay DD5.1 x264-EbPBad Times at the El Royale 2018 1080p BluRay DTS-ES x264-TayTOSector 4: Extraction 2014 720p BluRay x264-NOSCREENSDangal 2016 720p BluRay DD5.1 x264-ZQProud Mary 2018 720p BluRay DTS x264-GECKOSHot Pursuit 2015 ViE mHD BluRay DD5.1 x264-TRiM

Only members can create comment.